漢字変換で思うような漢字がなかなか出ないとストレスが溜まるので、
次の機種変更時には変換能力の優れたものにしようと思っています。

そこで質問なんですが、携帯に搭載されている変換ソフトの特徴、どれが変換機能に優れているか、どれがお勧めか、等を教えて下さい。
私はAUなのでモバイルWnnV2、ATOKforAU、東芝モバイルrupo、の3つについて教えて頂けるとありがたいです。
宜しくお願いします。

このQ&Aに関連する最新のQ&A

A 回答 (2件)

参考URLのところが参考になると思います。



参考URL:http://arika.org/memo.cgi?cmd=view;name=%B7%C8%C …
    • good
    • 0
この回答へのお礼

URLのところ、見ました。
参考になりました。ありがとうございます(^^)

お礼日時:2002/04/02 02:36

質問に記載されている変換ソフトではないんですが、一応AUなので...


ソニーエリクソンのが結構かしこいです。
自分も使ってます。(^^)

参考URL:http://www.sonyericsson.co.jp/product/au/c1002s/ …
    • good
    • 0
この回答へのお礼

ありがとうございます。ソニエリ賢いんですか。いいなぁ。
PObox→オムロンの協力って事はモバイルWnnに近いのでしょうかね。
私の408Pは変換どうしようもなくて、変換ソフト搭載モノはとても羨ましいです。

お礼日時:2002/03/31 19:15

このQ&Aに関連する人気のQ&A

お探しのQ&Aが見つからない時は、教えて!gooで質問しましょう!

このQ&Aを見た人が検索しているワード

このQ&Aと関連する良く見られている質問

Qau 漢字変換がおかしいです (W31K)

文字変換が異常です。通常変換でも予測変換でも変わりないのですが、どう考えても一般的な単語が変換できません(候補の一覧に出てきません)。

例えば、

きた→来た  ([木田][北][喜多]のみ)
つく→着く  ([筑]のみ)
おくる→送る ([お来る]のみ)
でる→出る  (漢字なし)
いけば→行けば([池場]のみ)
とどく→届く ([と毒]のみ)

覚えているだけでも、こんな具合です。
常に「送信」や「着信」のように別の単語を入れてから不要な文字を消すことで漢字を入力していますが、不便このうえありません。
その単語ですら正しく変換されなくて、幾つもの単語にトライしてようやく出てくる、という場合も多いです(T_T)
ただタイミングによっては、稀に出てくる場合もあります。。。

買い換えたばかりの頃から「あれ?」と思うような変換が多少はあったのですが、今ほどおかしくはありませんでした。

特に設定などを変更した覚えもないのですが・・・。
以前までの機種では「予測変換」というのを行わないものだったので、何か知らずにヘンな操作をしてしまったのかな・・・と思ったりするのですが、皆目分かりません。。。

原因だけでも結構ですので、何かご存知の方がいらっしゃいましたら、よろしくお願いします。

文字変換が異常です。通常変換でも予測変換でも変わりないのですが、どう考えても一般的な単語が変換できません(候補の一覧に出てきません)。

例えば、

きた→来た  ([木田][北][喜多]のみ)
つく→着く  ([筑]のみ)
おくる→送る ([お来る]のみ)
でる→出る  (漢字なし)
いけば→行けば([池場]のみ)
とどく→届く ([と毒]のみ)

覚えているだけでも、こんな具合です。
常に「送信」や「着信」のように別の単語を入れてから不要な文字を消すことで漢字を入力していますが、不便この...続きを読む

Aベストアンサー

ご使用の機種W31Kの文字変換(Advanced Wnn V2)は、はっきり言って変換はおマヌケなので、その内容のご質問かな?と思ったのですが、一つ気になるところが・・・

>ただタイミングによっては、稀に出てくる場合もあります。。。

と、この部分です。
これは同じように変換して、たまに(マトモに)変換されるということでしょうか?

幾人か、同機種で変換についての不具合的な質問が上がっていましたが、その時は携帯の電源を切り、バッテリーバックを外してから入れ直して再度変換して直ったという書き込みを見たことがあります。

それか、au ショップへ行き同機種で変換を試してみて明らかに変換の不具合だったというものもありました。

いかがでしょうか?

Qケータイやパソコンの漢字変換はメーカー製作。

ケータイなどの漢字変換の語彙数とその内容に不満があるのですが各メーカーが独自に辞書を作るのでしょうか。

当方はヴを表示するのにビトンと打ってヴィトンを出して消すというしかないようなのですがルイと打ってルイヴィトンを予測変換を出すより常識的な医学用語や科学用語や小難しいが新聞でたまに見かける熟語などを変換できるようにした方が助かるので正しい容量の使い方に思います(カタカナは変換の必要ないし簡単な漢字は簡単だし)。
ヴやヰが単語を介さないと出せないのですが少数派のケータイでしょうか。皆さんのはどうですか。

漢字の辞書登録はどのケータイも作業を終了し待ち受けメニュー画面に戻ってからでしょうか。そんな面倒をするくらいなら登録しないという成長しない状態で使っているところです。なぜ要らぬ多機能化をする前にメールやネットの文字入力中に辞書登録可能しないのでしょうか。
ご教授のほど宜しくお願いします。

Aベストアンサー

私の使用している携帯はかな漢字変換機能がATOKの携帯用版です。

携帯の文字入力は、電話+メールを機能のベースに開発され、
64MBの記憶エリアで如何にバランスを取るかから発展しました。

ATOKでは日常会話に出る用語の頻度順で優先度をつけて辞書を作り、

今のパソコン用最新版では約230万語(3年位前)が、
携帯では18万語(うろ覚えです)しか入らず、日常メール
に必要な用語も大幅に削られているのが現状です。

私は、携帯のメモリーの大容量化(=高価、バッテリーが
持たないスマホ状態)が望ましいとは思わず、現状容認派です。

自宅のスマホは、可なり辞書に登録された語数が増えています。
(2011年冬購入)
妻のスマホ(2012年冬)は、更に増えています。

Q携帯動画変換君で動画変換(W52T)

先日までW41Hを使っていましたがW52Tに機種変更しました。
VGA液晶ということなので動画をVGAサイズで変換しようと思いこちらのサイトを参考にしました。
http://www.nurs.or.jp/~calcium/wiki/index.php?W52T
設定の仕方を間違えているのか、エラーが出て変換できません。
動画の取得先は主にニコニコ動画です。
W41Hのときは携帯動画変換君がニコニコ動画の形式に対応していないということでこちらのサイトを参考に解決しました。
http://www.xucker.jpn.org/pc/keitaidouga_ffmpeg.html

今の問題が1番目のサイトに載っているW52Tの設定方法のデータがニコニコ動画の形式に対応していないのか、又は自分の設定方法が間違っているのかが分かりません。

携帯動画変換君でのW52Tの設定方法を教えてくださる方はいませんでしょうか?ニコニコ動画の形式に対応しているかどうかも教えてほしいです。

Aベストアンサー

「ニコニコ動画」という物が何なのか知らなかったので調べてみたのですが、
無料会員登録をして中を見てみた所、どうやらこれは当サイトで禁止されている
「著作権侵害」に該当する動画サイトのようです。
テレビを録画したものであっても、そのテレビの製作者に
無断でアップロードなどの2次利用すると著作権侵害に該当します。

Q&Aコミュニティー ヘルプ - サービス利用の関連ガイド:禁止事項
http://service.okwave.jp/cs/prohibition/

参考URL:http://service.okwave.jp/cs/prohibition/

Q携帯動画変換君 SA002 動画 変換 サイズ

携帯動画変換君で動画を変換してSA002で再生してみると、レターボックスのような再生画面になってしまいました。SA002で画面ピッタリの大きさで再生するには、どうしたらいいでしょうか?

VGA+(480x854)で設定するといいと回答をいただいたんですが、変換君設定のどこをどう変えたらいいのかを教えて欲しいです。

Aベストアンサー

大本のサイトを見るのを忘れてた…^^;

出来るだけ大きく見たい場合は、
 参考:http://mobilehackerz.jp/archive/wiki/index.php?SA001
の「WQVGA動画(320x240、H.264+AAC) 」を参考にすれば
良いかな。
※上記設定でも多少の黒帯が出るようですが。
尚、この設定は元動画が16:9の場合に有効です。
元動画が4:3であれば横長に成りますので、その場合は素直に
640x480で変換してください。

余談
前の質問も見てみましたけど、私的には「どうよ、それ」という感じ
の回答ですね。
少なくとも、au機種の動画変換はした事が無い人の回答の様に
思えます。
※auのフィーチャーフォンで、640x480以上のサイズを再生出来る
 機種は殆ど無いんじゃないかな。
 S005でも640x480以上は無理だったし…^^;

Q携帯動画変換君での動画変換について

はじめまして、こんにちは。
「携帯動画変換君」での質問です。

私の携帯はauの「W53K」で、動画の変換設定は「3GP2ファイル、音声AAC形式一般設定」の「QVGA標準画質15fptステレオ」で変換して、カードリーダーで直接変換した動画をSDカードに入れています。

色々動画変換をしてみて、ちゃんと動画変換が成功するのが大体1MB~1.5MBぐらいの動画で、その動画は携帯に入れてもちゃんと最後まで見れるのですが、それ以上のサイズとなると、携帯動画変換君で変換できず、下記のエラーが出てしまいます。

【エラー内容】
[flv @ 0x7e0ab4]Unsupported video codec (4)
Seems that stream 0 comes from film source: 1000.00 (1000/1) -> 24.00 (24/1)
Input #0, flv, from 'C:\Documents and Settings\○○\My Documents\○○\○○\△.flv':
Duration: N/A, bitrate: N/A
Stream #0.0: Video:
Stream #0.1: Audio: mp3, 22050 Hz, stereo
Output #0, 3gp, to 'C:\DOCUME~1\○○\LOCALS~1\Temp\E882CC8E-1EE1CD00-7C6E3343-C9A7F1C1.3gp':
Stream #0.0: Video: mpeg4, yuv420p, 320x240, 14.98 fps, q=2-31, 190 kb/s
Stream #0.1: Audio: aac, 16000 Hz, stereo, 32 kb/s
Stream mapping:
Stream #0.0 -> #0.0
Stream #0.1 -> #0.1
[mpeg4 @ 0x7aee38]removing common factors from framerate
Unsupported codec (id=0) for input stream #0.0
A>Dialog : 処理実行中にエラーが発生しました [Error:1]
T>Finished.
【エラー内容終了】

これに対する対応策などありますでしょうか?
ご回答、お待ちしております。

はじめまして、こんにちは。
「携帯動画変換君」での質問です。

私の携帯はauの「W53K」で、動画の変換設定は「3GP2ファイル、音声AAC形式一般設定」の「QVGA標準画質15fptステレオ」で変換して、カードリーダーで直接変換した動画をSDカードに入れています。

色々動画変換をしてみて、ちゃんと動画変換が成功するのが大体1MB~1.5MBぐらいの動画で、その動画は携帯に入れてもちゃんと最後まで見れるのですが、それ以上のサイズとなると、携帯動画変換君で変換できず、下記のエラーが出てしまいます。

...続きを読む

Aベストアンサー

Unsupported video codecって出てますね。
多分携帯動画変換君で対応してないビデオ形式なんじゃないでしょうか。
flvといってもいろいろ形式がありますが、VP6なんかは携帯動画変換君で使用しているffmpegでは扱えないと聞きます。
http://ja.wikipedia.org/wiki/Flash_Video
動画の容量はあんまり関係ないかも。

携帯動画変換君で変換したい場合の対応策としては、
・変換君で使用するVP6対応のffmpegを新しいものにする(設定ファイルの書き換えが必要)
参考:http://xucker2000.blogspot.com/2007/05/flv4.html
・いったん別のツールで携帯動画変換君に対応する形式に変換する(携帯電話に入れるにあたって二回変換を行うことになるので画質劣化が激しくなりやすい)

などでしょうか。


人気Q&Aランキング

おすすめ情報