これからの季節に親子でハイキング! >>

FLVファイルを携帯動画変換君で変換したいのですが、
いつもは簡単に変換できるんですが、今回のファイルは変換できません。
映像のコーデックが違うのでそれが原因だと思うのですが。
変換できたファイルと変換できなかったファイルをMMname2で調べたのでその情報を一応貼っておきます。


変換できたファイル
MMname2 v2.5.4 2007/01/07版 (DB 20070711) - Windows XP Service Pack 2 (5.1.2600)
■基本情報
ファイル:5.flv
形式:Flash Video / サイズ:77,850,409 (74.2 MB) / 再生時間:11m03s
ファイル整合性:
■映像情報 (ストリーム数 1)
1)コーデック:Sorenson H.263 (FLV1) / Code:0x02 / 略号:H263 / 320x240 30fps
■音声情報 (ストリーム数 1)
1)コーデック:MP3 / Code:0x02 / 略号:MP3 / 16 22.05KHz 64Kbps Joint stereo
■字幕情報 (ストリーム数 0)
■コメント情報 (情報数 7)
1)MetaData duration 663.301
2)MetaData width 320
3)MetaData height 240
4)MetaData videodatarate 0
5)MetaData framerate 30
6)MetaData audiosamplerate 22050
7)MetaData filesize 77850409
■DirectShow情報
スプリッタ:FLV Splitter F2FAC0F1-3852-4670-AAC0-9051D400AC54
映像デコーダ:
音声デコーダ:MPEG Layer-3 Decoder 00000055-0000-0010-8000-00AA00389B71 WMMEDIASUBTYPE_MP3
ステータス:


変換できなかったファイル
MMname2 v2.5.4 2007/01/07版 (DB 20070711) - Windows XP Service Pack 2 (5.1.2600)
■基本情報
ファイル:1.flv
形式:Flash Video / サイズ:13,286,159 (12.6 MB) / 再生時間:4m46s
ファイル整合性:
1)音声ビットレート:MetaDataと実定義に差異があります
■映像情報 (ストリーム数 1)
1)コーデック:On2 VP6(VP6.2) / Code:0x04 / 略号:VP6 / 320x240 292Kbps 29.97fps
■音声情報 (ストリーム数 1)
1)コーデック:MP3 / Code:0x02 / 略号:MP3 / 16 22.05KHz 64Kbps Joint stereo
■字幕情報 (ストリーム数 0)
■コメント情報 (情報数 14)
1)MetaData duration 286.572
2)MetaData lasttimestamp 286.572
3)MetaData datasize 12977594
4)MetaData metadatacreator FlixEngineLinux_8.0.9.0 (www.on2.com)
5)MetaData canSeekToEnd 1
6)MetaData videocodecid 4
7)MetaData width 320
8)MetaData height 240
9)MetaData videodatarate 292.331727738653
10)MetaData framerate 29.97002997003
11)MetaData videosize 10684879
12)MetaData audiocodecid 2
13)MetaData audiodatarate 62.5037894054548
14)MetaData audiosize 2292715
■DirectShow情報
スプリッタ:FLV Splitter F2FAC0F1-3852-4670-AAC0-9051D400AC54
映像デコーダ:ffdshow Video Decoder 34564C46-0000-0010-8000-00AA00389B71 FourCC FLV4
音声デコーダ:ffdshow Audio Decoder 00000055-0000-0010-8000-00AA00389B71 WMMEDIASUBTYPE_MP3
ステータス:

このQ&Aに関連する最新のQ&A

A 回答 (2件)

1.最も簡単な方法はCraving Explorerを使うことです。


保存時にファイル変換が可能です。
http://www.vector.co.jp/magazine/softnews/070609 …

2.携帯動画変換君でAvisynthとFLV Splitterを導入する。
こちらのページよりFlash Video decodersをダウンロードする。
http://www.rarewares.org/others.php#flash-video- …
その中にはいっているFLVSplitter.axをC:\WINDOWS\system32に保存してregister.batを実行する。
http://www.gigafree.net/media/codec/flashvideode …
こちらよりAvisynth 2.5をダウンロードしてインストールする。
http://sourceforge.net/project/showfiles.php?gro …

変換君coreフォルダ内のAVS_Skelton.avsをメモ帳で開いて2行目のDirectShowSource("<%InputFile%>")をDirectShowSource("<%InputFile%>",convertfps=true)に変更。

3GP_Converter.iniをメモ帳で開いて最後の行に「Ext3=FLV:\cores\AVS_Skelton.avs」を追加。

3.携帯動画変換君のffmpegをrev8731に更新する。
http://www.xucker.jpn.org/pc/keitaidouga_ffmpeg. …
ffmpeg.rev8731とpthreadGC2.dllをcoreフォルダにコピー。
以下のJavaScript支援ツールを参考にしてTranscoding.iniを書き換える。
http://www.xucker.jpn.org/js/keitaidouga_ffmpeg_ …

2.を実行すれば3.は不要。3.を実行したら2.は不要。
3.はTranscoding.iniの理解がないと失敗する可能性あり。

この回答への補足

2の「register.batを実行する。」というのはどうやるんですか?

補足日時:2007/10/22 20:35
    • good
    • 0
この回答へのお礼

出来ました!ありがとうございました!

お礼日時:2007/10/22 20:45

たぶん映像のほうがVP6だからですかね。


参考URLの、入れてみてください。

参考URL:http://www.xucker.jpn.org/pc/keitaidouga_ffmpeg. …

この回答への補足

やってみたんですが、できませんでした。

以下は、携帯動画変換君のログを写したものです。
T>Avisynthが利用可能です
T>1.flv (SH903i専用iモーション設定/WQVGA / 映像:Xvid 1024kbps 30fps 音声:192kbps 48kHz Stereo)
E>"C:\Documents and Settings\AAA\デスクトップ\携帯動画変換君\cores\ffmpeg" -y -i "C:\DOCUME~1\AAA ~1\LOCALS~1\Temp\48239A43-0F8BD4D0-6146553A-0C9627D7.avs" -title "1" -timestamp "2007-10-22 17:01:52" -bitexact -vcodec xvid -s 400x240 -r 30 -b 1024 -acodec aac -ac 2 -ar 48000 -ab 96 -f 3gp -muxvb 1024 -muxab 192 "C:\DOCUME~1\AAA ~1\LOCALS~1\Temp\FFC34CCE-A84CE280-5BC15604-25636ECF_1.3gp"
FFmpeg version SVN-r10464, Copyright (c) 2000-2007 Fabrice Bellard, et al.
configuration: --enable-gpl --enable-pp --enable-swscaler --enable-pthreads --enable-liba52 --enable-avisynth --enable-libamr-nb --enable-libamr-wb --enable-libfaac --enable-libfaad --enable-libgsm --enable-libmp3lame --enable-libnut --enable-libogg --enable-libtheora --enable-libvorbis --enable-libx264 --enable-libxvid --cpu=i686 --enable-memalign-hack --extra-ldflags=-static
libavutil version: 49.5.0
libavcodec version: 51.43.0
libavformat version: 51.12.2
built on Sep 10 2007 10:31:22, gcc: 4.2.1
Input #0, avs, from 'C:\DOCUME~1\AAA ~1\LOCALS~1\Temp\48239A43-0F8BD4D0-6146553A-0C9627D7.avs':
Duration: 00:04:46.5, start: 0.000000, bitrate: 0 kb/s
Stream #0.0: Video: rawvideo, rgb32, 320x240, 73654 kb/s, 29.97 fps(r)
Stream #0.1: Audio: pcm_s16le, 22050 Hz, stereo, 705 kb/s
Unable to find a suitable output format for 'xvid'
A>Dialog : 処理実行中にエラーが発生しました [Error:1]
T>Finished.

補足日時:2007/10/22 20:32
    • good
    • 0
この回答へのお礼

出来ました!ありがとうございました!

お礼日時:2007/10/22 20:45

お探しのQ&Aが見つからない時は、教えて!gooで質問しましょう!


人気Q&Aランキング

価格.com 格安SIM 料金比較